[Fshare] Lady Gaga - Super Bowl LI halftime show (2017) [FEED 1080i MPA2.0]

Thảo luận trong 'US-EU' bắt đầu bởi nkt198, 7/2/17.

  1. nkt198

    nkt198 Well-Known Member

    Tham gia ngày:
    10/5/15
    Bài viết:
    482
    Đã được cảm ơn:
    1,698
    Điểm thành tích:
    93
    Tiền:
    1,414 CR
    [​IMG]
    Format : MPEG-TS
    File size : 2.79 GiB
    Duration : 13 min 31 s
    Overall bit rate mode : Variable
    Overall bit rate : 29.5 Mb/s


    Video
    ID : 481 (0x1E1)
    Menu ID : 1 (0x1)
    Format : AVC
    Format/Info : Advanced Video Codec
    Format profile : High 4:2:[email protected]
    Format settings, CABAC : Yes
    Format settings, ReFrames : 3 frames
    Codec ID : 27
    Duration : 13 min 31 s
    Bit rate mode : Constant
    Bit rate : 28.2 Mb/s
    Width : 1 920 pixels
    Height : 1 080 pixels
    Display aspect ratio : 16:9
    Frame rate : 29.970 (30000/1001) FPS
    Color space : YUV
    Chroma subsampling : 4:2:2
    Bit depth : 8 bits
    Scan type : Interlaced
    Scan type, store method : Separated fields
    Scan order : Top Field First
    Bits/(Pixel*Frame) : 0.454
    Stream size : 2.59 GiB (93%)
    Color range : Limited
    Color primaries : BT.709
    Transfer characteristics : BT.709
    Matrix coefficients : BT.709

    Audio #1
    ID : 482 (0x1E2)
    Menu ID : 1 (0x1)
    Format : MPEG Audio
    Format version : Version 1
    Format profile : Layer 2
    Codec ID : 3
    Duration : 13 min 31 s
    Bit rate mode : Constant
    Bit rate : 256 kb/s
    Channel(s) : 2 channels
    Sampling rate : 48.0 kHz
    Compression mode : Lossy
    Delay relative to video : 46 ms
    Stream size : 24.8 MiB (1%)
    Language : English

    Audio #2
    ID : 483 (0x1E3)
    Menu ID : 1 (0x1)
    Format : MPEG Audio
    Format version : Version 1
    Format profile : Layer 2
    Codec ID : 3
    Duration : 13 min 31 s
    Bit rate mode : Constant
    Bit rate : 384 kb/s
    Channel(s) : 2 channels
    Sampling rate : 48.0 kHz
    Compression mode : Lossy
    Delay relative to video : 22 ms
    Stream size : 37.1 MiB (1%)
    Language : English

    Text
    ID : 481 (0x1E1)-1
    Menu ID : 1 (0x1)
    Format : EIA-708
    Muxing mode : SCTE 128 / DTVCC Transport
    Muxing mode, more info : Muxed in Video #1
    Duration : 13 min 31 s
    Bit rate mode : Constant
    Stream size : 0.00 Byte (0%)
    Language : English

    Download
     
    #1 +2 CR
    truongford cảm ơn bài này.

Chia sẻ trang này